منصور - کنسرت کامل در لس آنجلس 2010




Mansour - Full Concert Live At Nokia Club Los Angeles 2010


Info:
   General
      Format : MPEG-4
      Format profile : Base Media / Version 2
      Codec ID : mp42
      File size : 1.97 GiB
      Duration : 2h 2mn
      Overall bit rate : 2 296 Kbps
    Video :
      Format : AVC
      Format/Info : Advanced Video Codec
      Format profile : [email protected]
      Format settings, CABAC : Yes
      Format settings, ReFrames : 4 frames
      Codec ID : avc1
      Codec ID/Info : Advanced Video Coding
      Duration : 2h 2mn
      Bit rate mode : Variable
      Bit rate : 2 130 Kbps
      Nominal bit rate : 2 114 Kbps
      Width : 720 pixels
      Height : 384 pixels
      Display aspect ratio : 1.875
      Frame rate mode : Variable
      Frame rate : 23.976 fps
      Minimum frame rate : 14.983 fps
      Maximum frame rate : 29.970 fps
      Resolution : 24 bits
      Colorimetry : 4:2:0
      Scan type : Progressive
      Bits/(Pixel*Frame) : 0.321
      Stream size : 1.83 GiB (93%)
      Writing library : x264 core
   Audio :
      ID : 2
      Format : AAC
      Format/Info : Advanced Audio Codec
      Format version : Version 4
      Format profile : LC
      Format settings, SBR : No
      Codec ID : 40
      Duration : 2h 2mn
      Bit rate mode : Variable
      Bit rate : 160 Kbps
      Maximum bit rate : 199 Kbps
      Channel(s) : 2 channels
      Channel positions : L R
      Sampling rate : 48.0 KHz
      Resolution : 16 bits
      Stream size : 140 MiB

1.97 GB
https://archive.org/download/Mansour-Concert-Los.Angeles.2010/mansour-live-los.angeles.2010-mosicvideo.com.mp4
or
http://uploadboy.com/lqa3x99upuky/2527/mp4
or 
http://www.4shared.com/video/pI6rj9hLce/mansour-live-losangeles2010-mo.html